Thread Rating:
  • 0 Vote(s) - 0 Average
  • 1
  • 2
  • 3
  • 4
  • 5
Rabb Da Radio - (2017) - 1CD - DesiPreDVD-Rip Punjabi - x264 - MP3 - Mafiaking - M2Tv
#1
[center][Image: rabbdaradio_04.jpg]



Code:
Ratings: 8.5/10

Genere: * * *Drama

General
Unique ID : 177937447170476935934006292133600613954 (0x85DD817A5CA51CE5A3AF6BC7815CD642)
Complete name : Rabb Da Radio - (2017) - 1CD - DesiPreDVD-Rip - Punjabi - x264 - MP3 - Mafiaking - M2Tv.mkv
Format : Matroska
Format version : Version 4 / Version 2
File size : 707 MiB
Duration : 1 h 56 min
Overall bit rate : 848 kb/s
Movie name : Rabb Da Radio - (2017) - 1CD - DesiPreDVD-Rip - Punjabi - x264 - MP3 - Mafiaking - M2Tv
Encoded date : UTC 2017-05-31 13:40:25
Writing application : mkvmerge v7.7.0 ('Six Voices') 32bit built on Feb 28 2015 23:23:00
Writing library : libebml v1.3.1 + libmatroska v1.4.2

Video
ID : 1
Format : AVC
Format/Info : Advanced Video Codec
Format profile : High@L3
Format settings, CABAC : Yes
Format settings, ReFrames : 4 frames
Codec ID : V_MPEG4/ISO/AVC
Duration : 1 h 56 min
Bit rate : 750 kb/s
Width : 640 pixels
Height : 272 pixels
Display aspect ratio : 2.35:1
Frame rate mode : Constant
Frame rate : 29.970 (30000/1001) FPS
Color space : YUV
Chroma subsampling : 4:2:0
Bit depth : 8 bits
Scan type : Progressive
Bits/(Pixel*Frame) : 0.144
Stream size : 625 MiB (88%)
Title : Mafiaking
Language : Panjabi
Default : Yes
Forced : No

Audio
ID : 2
Format : MPEG Audio
Format version : Version 1
Format profile : Layer 3
Mode : Joint stereo
Mode extension : MS Stereo
Codec ID : A_MPEG/L3
Codec ID/Hint : MP3
Duration : 1 h 56 min
Bit rate mode : Constant
Bit rate : 96.0 kb/s
Channel(s) : 2 channels
Sampling rate : 32.0 kHz
Frame rate : 27.778 FPS (1152 spf)
Compression mode : Lossy
Stream size : 80.0 MiB (11%)
Title : Mafiaking
Writing library : LAME3.99r
Language : Panjabi
Default : Yes
Forced : No

[Image: 1.th.png][Image: 2.th.png][Image: 3.th.png][Image: 4.th.png][Image: 5.th.png][Image: 7.th.png][Image: 8.th.png][Image: 9.th.png][Image: 10.th.png][Image: 12.th.png]

[COLOR="black"][SIZE="4"][B]Download Link[/SIZE][/COLOR][/B]

[COLOR="red"]SINGLE[/COLOR] [COLOR="blue"]DIRECT[/COLOR] [COLOR="darkred"]FAST[/COLOR] [COLOR="magenta"]LINKS[/COLOR]

Code:
http://rapidpaid.com/c42c81f3036ba3e3/Rabb_Da_Radio_(2017)_1CD_PDVD-Rip_x264_MP3_Mafiaking_M2Tv.mkv

Code:
http://rapidgator.net/file/cc09ecfe4a074f582a6c082ed5c4fb59/Rabb_Da_Radio_(2017)_1CD_PDVD-Rip_x264_MP3_Mafiaking_M2Tv.mkv.html

Code:
http://nitroflare.com/view/252D61902FF89D2/Rabb_Da_Radio_%282017%29_1CD_PDVD-Rip_x264_MP3_Mafiaking_M2Tv.mkv

[/center]
Reply
Thanks given by:


Forum Jump:


Users browsing this thread: 1 Guest(s)